Quick Browse
Movies
TV shows
Music
Games
Applications
Anime
Other

Latest Articles

Friends
Torrents.me
Torrent Download
Movie4u
1337x
RARBG
Full Movies
Torrent Downloads

18+ Annihilation 2018 Movies BRRip x264 5 1 with Sample ☻rDX☻


    Seeders : 0      Leechers : 0

Hash :4C4D129A8B65B7180578FE28124F359FC198B40E
Added :3 hours ago in Movies
Size :846.29 MB
Stream :Watch Online Full Movie @ Movie4u
Share :









Note :

Please Update (Trackers Info) Before Downloading Torrents to See Updated Seeders And Leechers for Batter Download Speed.

Trackers List

Tracker NameLast CheckStatusSeedersLeechers




Torrent File Content (2 files)


18+ Annihilation 2018 Movies BRRip x264 5.1 with Sample ☻rDX☻
     Sample ~ 18+ Annihilation 2018 Movies BRRip x264 5.1 ☻rDX☻.mkv -
7.28 MB

     18+ Annihilation 2018 Movies BRRip x264 5.1 ☻rDX☻.mkv -
839.01 MB



Description



18+ Annihilation 2018 Movies BRRip x264 5.1 with Sample ☻rDX☻
===============================================================================================

SCREEN SHOTS:



or

http://iphonehosting.eu/2018/5/desktop/1.html

File size : 839 MiB
Duration : 1 h 55 min
Overall bit rate mode : Constant
Overall bit rate : 1 020 kb/s
Movie name : 18+ Annihilation 2018 Movies BRRip x264 5.1 ☻rDX☻

Video
ID : 2
Format : AVC
Format/Info : Advanced Video Codec
Format profile : [email protected]
Format settings, CABAC : Yes
Format settings, ReFrames : 2 frames
Format settings, GOP : M=1, N=12
Codec ID : V_MPEG4/ISO/AVC
Duration : 1 h 55 min
Bit rate mode : Constant
Bit rate : 637 kb/s
Width : 720 pixels
Height : 304 pixels
Display aspect ratio : 2.35:1
Frame rate mode : Constant
Frame rate : 23.976 FPS
Color space : YUV
Chroma subsampling : 4:2:0
Bit depth : 8 bits
Scan type : Progressive
Bits/(Pixel*Frame) : 0.121
Stream size : 506 MiB (60%)
Title : ☻rDX☻
Default : Yes
Forced : No

Audio
ID : 1
Format : AC-3
Format/Info : Audio Coding 3
Mode extension : CM (complete main)
Format settings, Endianness : Big
Codec ID : A_AC3
Duration : 1 h 55 min
Bit rate mode : Constant
Bit rate : 384 kb/s
Channel(s) : 6 channels
Channel positions : Front: L C R, Side: L R, LFE
Sampling rate : 48.0 kHz
Frame rate : 31.250 FPS (1536 spf)
Bit depth : 16 bits
Compression mode : Lossy
Stream size : 316 MiB (38%)
Title : ☻rDX☻
Default : Yes
Forced : No



IMDB : http://www.imdb.com/title/tt2798920


Related torrents

Torrent NameAddedSizeSeedLeechHealth
2 months ago - in Movies851.79 MB11
2 months ago - in Movies705.59 MB101
10 months ago - in Movies705.5 MB1174
10 days ago - in Movies846.95 MB00
12 days ago - in Movies846.63 MB00
Verified torrent
14 days ago - in Movies705.22 MB910

Note :

Feel free to post any comments about this torrent, including links to Subtitle, samples, screenshots, or any other relevant information. Please Dont Download anything from Comments, And Dont Post Links to Streaming Sites like Fmovies, Xmovies8, 123Movies, GoMovies, CMovieshd, Solarmovie, Watchfree, Putlockers, GoStream, m4ufree etc.

Comments (0 Comments)




Please login or create a FREE account to post comments

Latest Searches

| monster dvdr | Home Toy | Ashley Adams All Rookie Team | ybn nahmir bounce out with | the is crowd | Front And Center Live From New York 2018 | Tarzan eng 1999 | cb20100 | Seal team eight enemy lines | psx patched |