Quick Browse
Movies
TV shows
Music
Games
Applications
Anime
Other

Latest Articles

Friends
Torrents.me
Torrent Download
Movie4u
1337x
RARBG
Full Movies
Torrent Downloads

18+ Red Sparrow 2018 720p BluRay x264 Hindi Audio LLG


    Seeders : 24      Leechers : 43

Hash :A02C03542C7598BAEA3D626727D3E2348B0585A0
Added :53 minutes ago in Movies - Movies
Size :1.26 GB
Stream :Watch Online Full Movie @ Movie4u
Share :









Note :

Please Update (Trackers Info) Before Downloading Torrents to See Updated Seeders And Leechers for Batter Download Speed.

Trackers List

Tracker NameLast CheckStatusSeedersLeechers
udp://tracker.opentrackr.org:1337/announce53 minutes agosuccess2443
udp://tracker.leechers-paradise.org:6969/announce53 minutes agosuccess1633
udp://eddie4.nl:6969/announce53 minutes agosuccess1633
udp://tracker.pirateparty.gr:6969/announce53 minutes agosuccess816
udp://tracker.coppersurfer.tk:6969/announce53 minutes agosuccess816
udp://9.rarbg.me:2710/announce53 minutes agosuccess34
udp://9.rarbg.to:2710/announce53 minutes agosuccess34
udp://tracker.internetwarriors.net:1337/announce53 minutes agosuccess00
udp://ipv4.tracker.harry.lu:80/announce53 minutes agosuccess00
udp://asnet.pw:2710/announce53 minutes agosuccess00
udp://public.popcorn-tracker.org:6969/announce53 minutes agosuccess01
http://tracker.trackerfix.com/announce53 minutes agosuccess00
udp://tracker.vanitycore.co:6969/announce53 minutes agosuccess01
udp://tracker.zer0day.to:1337/announce53 minutes agosuccess00
http://tracker.opentrackr.org/announce53 minutes agosuccess00
udp://tracker.mgtracker.org:2710/announce53 minutes agosuccess00
udp://mgtracker.org:6969/announce53 minutes agosuccess00
udp://tracker.sktorrent.net:6969/announce53 minutes agosuccess00
udp://tracker.x4w.co:6969/announce53 minutes agosuccess00
udp://explodie.org:6969/announce53 minutes agosuccess00
udp://tracker.mg64.net:6881/announce53 minutes agosuccess00
http://bigfoot1942.sektori.org:6969/announce53 minutes agosuccess00
http://announce.torrentsmd.com:6969/announce53 minutes agosuccess00
udp://p4p.arenabg.ch:1337/announce53 minutes agosuccess00
udp://tracker.blackunicorn.xyz:6969/announce53 minutes agosuccess00
udp://tracker4.piratux.com:6969/announce53 minutes agosuccess00
udp://glotorrents.pw:6969/announce53 minutes agosuccess00
udp://tracker.trackerfix.com:80/announce53 minutes agosuccess00
udp://tracker.pomf.se:80/announce53 minutes agosuccess00
http://tracker2.wasabii.com.tw:6969/announce53 minutes agosuccess00
udp://castradio.net:6969/announce53 minutes agosuccess00




Torrent File Content (2 files)


18+.Red.Sparrow.2018.720p.BluRay.x264.Hindi.Audio.LLG
     Sample.mp4 -
14.16 MB

     18+.Red.Sparrow.2018.720p.BluRay.x264.Hindi.Audio.LLG.mp4 -
1.24 GB



Description



Movies : Drama : HD 720p : Hindi


******************************Thumbnail:**********************



******************************Screenshots:********************

Screenshot 1

Screenshot 2

Screenshot 3

Screenshot 4

Screenshot 5

Screenshot 6

Screenshot 7

Screenshot 8

Screenshot 9

Screenshot 0

**************************************************************

Complete name : 18+.Red.Sparrow.2018.720p.BluRay.x264.Hindi.Audio.LLG.mp4
Format : MPEG-4
Format profile : Base Media
Codec ID : isom (isom/iso2/avc1/mp41)
File size : 1.24 GiB
Duration : 2 h 20 min
Overall bit rate : 1 267 kb/s
Writing application : Lavf57.56.101

Video
ID : 1
Format : AVC
Format/Info : Advanced Video Codec
Format profile : [email protected]
Format settings : CABAC / 4 Ref Frames
Format settings, CABAC : Yes
Format settings, RefFrames : 4 frames
Codec ID : avc1
Codec ID/Info : Advanced Video Coding
Duration : 2 h 20 min
Bit rate : 1 200 kb/s
Width : 1 280 pixels
Height : 536 pixels
Display aspect ratio : 2.40:1
Frame rate mode : Constant
Frame rate : 23.976 (23976/1000) FPS
Color space : YUV
Chroma subsampling : 4:2:0
Bit depth : 8 bits
Scan type : Progressive
Bits/(Pixel*Frame) : 0.073
Stream size : 1.17 GiB (94%)

Audio
ID : 2
Format : AAC
Format/Info : Advanced Audio Codec
Format profile : LC
Codec ID : mp4a-40-2
Duration : 2 h 20 min
Bit rate mode : Constant
Bit rate : 64.4 kb/s
Channel(s) : 2 channels
Channel(s)_Original : 6 channels
Channel positions : Front: L C R, Side: L R, LFE
Sampling rate : 48.0 kHz
Frame rate : 46.875 FPS (1024 SPF)
Compression mode : Lossy
Stream size : 64.5 MiB (5%)
Language : Hindi
Default : Yes
Alternate group : 1
Menus : 3

Related torrents

Torrent NameAddedSizeSeedLeechHealth
2 months ago - in Movies1.28 GB2317
4 days ago - in Movies1.05 GB00
2 days ago - in Movies1.38 GB00
2 days ago - in Movies2.15 GB00
2 days ago - in Movies1.49 GB00

Note :

Feel free to post any comments about this torrent, including links to Subtitle, samples, screenshots, or any other relevant information. Please Dont Download anything from Comments, And Dont Post Links to Streaming Sites like Fmovies, Xmovies8, 123Movies, GoMovies, CMovieshd, Solarmovie, Watchfree, Putlockers, GoStream, m4ufree etc.

Comments (0 Comments)




Please login or create a FREE account to post comments

Latest Searches

| George Sylvia massagerooms | Japanese Songs | Qntal Qntal I | Nikola wmv | fantastic beast and where to find 2016 | return to forever montreux | MILFs Go Black 2 | Soegija 2012 | RUSH SECTOR 3 | sousei no onmyouji horriblesubs 480p |