Quick Browse
Movies
TV shows
Music
Games
Applications
Anime
Other

Latest Articles

Friends
Torrents.me
Torrent Download
Movie4u
1337x
RARBG
Full Movies
Torrent Downloads

Batman Ninja 2018 720p BluRay x264 AC3-RiPRG


    Seeders : 3      Leechers : 6

Hash :E9581AC5CB12ADD457C4D47CC356F84F6F046D01
Added :58 minutes ago in Movies - Movies
Size :1.59 GB
Stream :Watch Online Full Movie @ Movie4u
Share :


Batman Ninja 2018 720p BluRay x264 AC3-RiPRG
Download Direct And Anonymously








Note :

Please Update (Trackers Info) Before Downloading Torrents to See Updated Seeders And Leechers for Batter Download Speed.

Trackers List

Tracker NameLast CheckStatusSeedersLeechers
udp://tracker.coppersurfer.tk:6969/announce58 minutes agosuccess36
udp://tracker.pirateparty.gr:6969/announce58 minutes agosuccess36
udp://9.rarbg.me:2710/announce58 minutes agosuccess16
udp://tracker.tiny-vps.com:6969/announce58 minutes agosuccess12
udp://tracker.leechers-paradise.org:6969/announce58 minutes agosuccess16
udp://tracker.opentrackr.org:1337/announce58 minutes agosuccess16
udp://public.popcorn-tracker.org:6969/announce58 minutes agosuccess16
udp://9.rarbg.to:2710/announce58 minutes agosuccess16
udp://eddie4.nl:6969/announce58 minutes agosuccess16
http://retracker.mgts.by/announce58 minutes agosuccess13
udp://tracker.vanitycore.co:6969/announce58 minutes agosuccess00
udp://tracker.internetwarriors.net:1337/announce58 minutes agosuccess00
udp://tracker.x4w.co:6969/announce58 minutes agosuccess00
udp://tracker.sktorrent.net:6969/announce58 minutes agosuccess00
udp://mgtracker.org:6969/announce58 minutes agosuccess00
udp://tracker.mgtracker.org:2710/announce58 minutes agosuccess00
http://tracker.opentrackr.org/announce58 minutes agosuccess00
udp://tracker.zer0day.to:1337/announce58 minutes agosuccess00
http://tracker.devil-torrents.pl/announce58 minutes agosuccess00
udp://asnet.pw:2710/announce58 minutes agosuccess00
http://open.kickasstracker.com/announce58 minutes agosuccess00
http://ipv4.tracker.harry.lu/announce58 minutes agosuccess00
http://t.nyaatracker.com/announce58 minutes agosuccess00
udp://tracker.mg64.net:6881/announce58 minutes agosuccess00
udp://p4p.arenabg.ch:1337/announce58 minutes agosuccess00
udp://tracker.blackunicorn.xyz:6969/announce58 minutes agosuccess00
udp://tracker4.piratux.com:6969/announce58 minutes agosuccess00
udp://glotorrents.pw:6969/announce58 minutes agosuccess00
udp://tracker.trackerfix.com:80/announce58 minutes agosuccess00
udp://tracker.pomf.se:80/announce58 minutes agosuccess00
http://tracker2.wasabii.com.tw:6969/announce58 minutes agosuccess00
udp://explodie.org:6969/announce58 minutes agosuccess00
udp://castradio.net:6969/announce58 minutes agosuccess00
http://announce.torrentsmd.com:6969/announce58 minutes agosuccess00
http://bigfoot1942.sektori.org:6969/announce58 minutes agosuccess00
http://tracker.trackerfix.com/announce58 minutes agosuccess00
udp://ipv4.tracker.harry.lu:80/announce58 minutes agosuccess00




Torrent File Content (1 file)


Batman.Ninja.2018.720p.BluRay.x264.AC3-RiPRG
     Batman.Ninja.2018.720p.BluRay.x264.AC3-RiPRG.mkv -
1.59 GB



Description



Movies : Animation : HD 720p : English


Batman.Ninja.2018.720p.BluRay.x264.AC3-RiPRG

Batman, along with a number of his allies and adversaries, finds himself transplanted from modern Gotham City to feudal Japan.

http://www.imdb.com/title/tt7451284/

General

Format : Matroska
Format version : Version 4 / Version 2
File size : 1.59 GiB
Duration : 1h 25mn
Overall bit rate : 2 676 Kbps
Movie name : RiPRG

Video

Format : AVC
Format/Info : Advanced Video Codec
Format profile : [email protected]
Format settings, CABAC : Yes
Format settings, ReFrames : 4 frames
Codec ID : V_MPEG4/ISO/AVC
Duration : 1h 25mn
Bit rate : 2 500 Kbps
Width : 1 280 pixels
Height : 720 pixels
Display aspect ratio : 16:9
Frame rate mode : Constant
Frame rate : 23.976 fps
Color space : YUV
Chroma subsampling : 4:2:0
Bit depth : 8 bits
Scan type : Progressive
Bits/(Pixel*Frame) : 0.113
Stream size : 1.43 GiB (90%)
Writing library : x264 core 148
Default : Yes
Forced : No
Color primaries : BT.709
Transfer characteristics : BT.709
Matrix coefficients : BT.709

Audio

Format : AC-3
Format/Info : Audio Coding 3
Mode extension : CM (complete main)
Format settings, Endianness : Big
Codec ID : A_AC3
Duration : 1h 25mn
Bit rate mode : Constant
Bit rate : 224 Kbps
Channel(s) : 6 channels
Channel positions : Front: L C R, Side: L R, LFE
Sampling rate : 48.0 KHz
Bit depth : 16 bits
Compression mode : Lossy
Delay relative to video : -5ms
Stream size : 137 MiB (8%)
Title : Surround
Language : English
Default : Yes
Forced : No

Text

Format : ASS
Codec ID : S_TEXT/ASS
Codec ID/Info : Advanced Sub Station Alpha
Compression mode : Lossless
Language : English
Default : No
Forced : No




Related torrents

Torrent NameAddedSizeSeedLeechHealth
17 days ago - in Movies2.76 GB00
23 hours ago - in Movies4.37 GB00
Yesterday - in Movies4.46 GB00
15 days ago - in Movies965.27 MB22
18 days ago - in Movies935.82 MB33

Note :

Feel free to post any comments about this torrent, including links to Subtitle, samples, screenshots, or any other relevant information. Please Dont Download anything from Comments, And Dont Post Links to Streaming Sites like Fmovies, Xmovies8, 123Movies, GoMovies, CMovieshd, Solarmovie, Watchfree, Putlockers, GoStream, m4ufree etc.

Comments (0 Comments)




Please login or create a FREE account to post comments

Latest Searches

| Kyla brcc | A One Time Only Girl Girl | offspring the kids alright | python win 7 | My Daughter s Fucking Blackzilla 7 | Origins Saga | Jerome Barkow | sweet and simple baby crochet 35 adorable designs for newborns to 12 months | q xl | qu 01 |