Quick Browse
Movies
TV shows
Music
Games
Applications
Anime
Other

Latest Articles

Friends
Torrents.me
Torrent Download
Movie4u
1337x
RARBG
Full Movies
Torrent Downloads

Deadpool 2 2018 720p English HDCAM-Rip x264 AAC 800MB[HDFilmBoss]


    Seeders : 0      Leechers : 0

Hash :E34BFBF56A36F2F39B271C0FA543DA7512E75B57
Added :4 days ago by HDFilmBoss in Movies
Size :806.65 MB
Stream :Watch Online Full Movie @ Movie4u
Share :









Note :

Please Update (Trackers Info) Before Downloading Torrents to See Updated Seeders And Leechers for Batter Download Speed.

Trackers List

Tracker NameLast CheckStatusSeedersLeechers




Torrent File Content (1 file)


     Deadpool 2 (2018) 720p English HDCAM-Rip x264 AAC 800MB-HDFilmBoss.Com.mkv -
806.65 MB



Description



General
Complete name:Deadpool 2 (2018) 720p English HDCAM-Rip x264 AAC 800MB-HDFilmBoss.Com.mkv
File size : 807 MiB
Duration : 1 h 49 min
Overall bit rate : 1 031 kb/s
Writing application : mkvmerge v7.1.0 ('Good Love') 32bit built on Jul 27 2014 12:59:18

Video
ID : 1
Format : AVC
Format settings, CABAC : Yes
Format settings, RefFrames : 4 frames
Duration : 1 h 49 min
Bit rate : 938 kb/s
Width : 1 280 pixels
Height : 512 pixels
Color space : YUV
Bit depth : 8 bits
Stream size : 734 MiB (91%)
Title : HDFilmBoss.Com
Writing library : x264 core 155 r2901 7d0ff22
Language : English
Default : Yes
Forced : No

Audio
ID : 2
Format : MPEG Audio
Codec ID/Hint : MP3
Duration : 1 h 49 min
Bit rate : 90.2 kb/s
Nominal bit rate : 96.0 kb/s
Channel(s) : 2 channels
Sampling rate : 48.0 kHz
Stream size : 70.6 MiB (9%)
Title : HDFilmBoss.Com
Writing library : LAME3.99r
Encoding settings : -m j -V 4 -q 3 -lowpass 15.1 --abr 96
Language : English
Default : Yes
Forced : No

Visit Site>http://hdfilmboss.com/

http://i.imgur.com/anFjrPK.gif

http://i.imgur.com/J5xovRA.jpg

http://i.imgur.com/UHirkhj.jpg

http://i.imgur.com/lfdwHjY.jpg

http://i.imgur.com/JwZfn14.jpg

Related torrents

Torrent NameAddedSizeSeedLeechHealth
23 days ago - in Movies781.49 MB00
23 days ago - in Movies781.49 MB00
Verified torrent
23 days ago - in Movies781.49 MB313
4 days ago - in Movies806.65 MB00
4 days ago - in Movies806.65 MB00
2 months ago - in Movies896.84 MB125

Note :

Feel free to post any comments about this torrent, including links to Subtitle, samples, screenshots, or any other relevant information. Please Dont Download anything from Comments, And Dont Post Links to Streaming Sites like Fmovies, Xmovies8, 123Movies, GoMovies, CMovieshd, Solarmovie, Watchfree, Putlockers, GoStream, m4ufree etc.

Comments (0 Comments)




Please login or create a FREE account to post comments

Latest Searches

| gag amateur | Dex7111 The Dagger and The Coin 05 | crystal young crystal beach | babadook dts | porn private movie | classic nhl | kc and the sunshine band | monster belgium | pink floyd Man and The Journey | best u2 2010 |