Quick Browse
Movies
TV shows
Music
Games
Applications
Anime
Other

Latest Articles

Friends
Torrents.me
Torrent Download
Movie4u
1337x
RARBG
Full Movies
Torrent Downloads

Empire S04E17 Bloody Noses and Crackd Crowns 1080p 5 1 - 2 0 x264 Phun Psyz


    Seeders : 0      Leechers : 0


Note :

Please Update (Trackers Info) Before Downloading Torrents to See Updated Seeders And Leechers for Batter Download Speed.

Trackers List

Tracker NameLast CheckStatusSeedersLeechers




Torrent File Content (1 file)


     Empire S04E17 Bloody Noses and Crack'd Crowns 1080p 5.1 - 2.0 x264 Phun Psyz.mp4 -
647.87 MB



Description



TV : Drama : HD : English
.
www.imdb.com/title/tt6742062/?ref_=ttep_ep17

Cookie and Lucious fight to keep Empire in the family, as they prepare a livestream concert to crowd-fund the amount needed to trump Eddie's plans. Meanwhile, the success of Jamal's new anonymous group climbs, Hakeem brings Haven to the showcase to make Tiana jealous, and Andre is put to the test and must decide between the family or his career.

Source: AJP69 (Amzn) (3.66 GiB)



Format : MPEG-4
Format profile : Base Media / Version 2
Codec ID : mp42 (isom/iso2/avc1/mp41)
File size : 648 MiB
Duration : 43 min 8 s
Overall bit rate mode : Variable
Overall bit rate : 2 100 kb/s

Video
ID : 1
Format : AVC
Format/Info : Advanced Video Codec
Format profile : [email protected]
Format settings : CABAC / 8 Ref Frames
Format settings, CABAC : Yes
Format settings, RefFrames : 8 frames
Codec ID : avc1
Codec ID/Info : Advanced Video Coding
Duration : 43 min 8 s
Bit rate : 1 612 kb/s
Width : 1 920 pixels
Height : 1 080 pixels
Display aspect ratio : 16:9
Frame rate mode : Variable
Frame rate : 23.976 (24000/1001) FPS
Minimum frame rate : 23.974 FPS
Maximum frame rate : 23.981 FPS
Color space : YUV
Chroma subsampling : 4:2:0
Bit depth : 8 bits
Scan type : Progressive
Bits/(Pixel*Frame) : 0.032
Stream size : 497 MiB (77%)
Writing library : x264 core 155 r2893 b00bcaf

Audio #1
ID : 2
Format : AC-3
Format/Info : Audio Coding 3
Format settings, Endianness : Big
Codec ID : ac-3
Duration : 43 min 8 s
Bit rate mode : Constant
Bit rate : 320 kb/s
Channel(s) : 6 channels
Channel positions : Front: L C R, Side: L R, LFE
Sampling rate : 48.0 kHz
Frame rate : 31.250 FPS (1536 SPF)
Bit depth : 16 bits
Compression mode : Lossy
Stream size : 98.7 MiB (15%)
Title : Surround / Surround
Language : English

Audio #2
ID : 3
Format : AAC
Format/Info : Advanced Audio Codec
Format profile : LC
Codec ID : mp4a-40-2
Duration : 43 min 8 s
Bit rate mode : Variable
Bit rate : 160 kb/s
Channel(s) : 2 channels
Channel positions : Front: L R
Sampling rate : 48.0 kHz
Frame rate : 46.875 FPS (1024 SPF)
Compression mode : Lossy
Stream size : 49.5 MiB (8%)
Title : Stereo / Stereo
Language : English

Text
Language : English
Default : Yes
Forced : No

Related torrents

Torrent NameAddedSizeSeedLeechHealth
19 days ago - in TV shows608.52 MB00
18 days ago - in TV shows321.28 MB00
Last Month - in TV shows356.01 MB83
3 months ago - in TV shows316.49 MB84
4 months ago - in TV shows266.28 MB44
4 months ago - in TV shows289.25 MB68

Note :

Feel free to post any comments about this torrent, including links to Subtitle, samples, screenshots, or any other relevant information. Please Dont Download anything from Comments, And Dont Post Links to Streaming Sites like Fmovies, Xmovies8, 123Movies, GoMovies, CMovieshd, Solarmovie, Watchfree, Putlockers, GoStream, m4ufree etc.

Comments (0 Comments)




Please login or create a FREE account to post comments

Latest Searches

| cinematic tracks | blind experiment cherie | e DOC | anni c | lil wayne no ceilings 1 2 | saga crush candy cheat | supernatural 720p season 3 bluury | munna micheal 720p hindi | hero in a | Spider Man 2 2004 1080p x265 |